<?xml version="1.0" standalone="no"?>
<!DOCTYPE svg PUBLIC "-//W3C//DTD SVG 1.1//EN" "http://www.w3.org/Graphics/SVG/1.1/DTD/svg11.dtd" >
<svg xmlns="http://www.w3.org/2000/svg">
  <metadata>Created by iconfont</metadata>
  <defs>
  <font id="iconfont" horiz-adv-x="1024">
    <font-face
      font-family="iconfont"
      font-weight="400"
      font-stretch="normal"
      units-per-em="1024"
      ascent="896"
      descent="-128"
    />
      <missing-glyph />
      
      <glyph glyph-name="question" unicode="&#58998;" d="M512 0a384 384 0 1 0 0 768 384 384 0 0 0 0-768z m-5.632 132.010667a34.901333 34.901333 0 1 1 0 69.76 34.901333 34.901333 0 0 1 0-69.76z m150.186667 339.882666a131.584 131.584 0 0 1-37.12 98.688A148.949333 148.949333 0 0 1 511.573333 616.533333a143.701333 143.701333 0 0 1-102.101333-42.453333c-27.221333-27.306667-42.24-63.573333-42.24-102.144a29.013333 29.013333 0 1 1 58.026667 0c0 47.701333 38.826667 86.528 86.485333 86.613333h0.170667c24.746667 0 48.597333-10.154667 65.450666-27.861333 14.805333-15.573333 22.314667-35.285333 21.248-55.68-0.853333-17.493333-1.749333-34.005333-53.76-85.930667-32.426667-32.469333-61.952-64.938667-65.92-105.130666a29.013333 29.013333 0 0 1 57.813334-5.717334c1.834667 19.072 20.138667 40.832 49.152 69.845334 57.173333 57.173333 68.650667 86.613333 70.656 123.861333z"  horiz-adv-x="1024" />
      
      <glyph glyph-name="arrow-down" unicode="&#58981;" d="M512 181.333333c-8.533333 0-17.066667 2.133333-23.466667 8.533334l-341.333333 341.333333c-12.8 12.8-12.8 32 0 44.8 12.8 12.8 32 12.8 44.8 0l320-317.866667 317.866667 320c12.8 12.8 32 12.8 44.8 0 12.8-12.8 12.8-32 0-44.8L533.333333 192c-4.266667-8.533333-12.8-10.666667-21.333333-10.666667z"  horiz-adv-x="1024" />
      
      <glyph glyph-name="excel" unicode="&#58942;" d="M920.64 679.93a32.37 32.37 0 0 1-35.94 36.41c-99.41 1.93-198.92 0-298.53 0.87v76.2H530.5c-142.67-26.01-285.43-50.86-428.1-76.39V50.4c141.99-25.43 283.98-49.7 425.98-75.81h57.8v74.85h279.36c15.89 0.96 33.43 0 47.01 9.63 10.89 17.24 8.09 38.53 9.05 57.8-0.96 187.37 0.68 375.4-0.96 563.06zM449.16 226.8H242.44V517.24h205.95v-51.47h-145v-62.23h138.9v-51.47h-138.9v-73.79h153.22l-7.45-51.48z m444.12-147.78H586.17v76.2h241.98v38.53H586.17v47.2h241.98v38.54H586.17v47.2h241.98v38.53H586.17v48.16h241.98v37.09H586.17v48.16h241.98V536.2H586.17v47.68h241.98v38.05H586.17V688.6h307.11v-609.58z"  horiz-adv-x="1024" />
      
      <glyph glyph-name="pdf" unicode="&#58944;" d="M731.52 644.85l117.15 0.03c8.49 0 12.87 11.15 7.06 17.96L738.59 800.11c-2 2.34-4.52 3.39-6.99 3.39-4.97 0-9.77-4.23-9.77-10.68l-0.01-137.3c0.01-5.89 4.35-10.67 9.7-10.67z m17.4 98.91l66.31-77.71-66.32-0.02 0.01 77.73zM297.37 568.85c-16.45 0-29.79-13.34-29.79-29.79s13.34-29.79 29.79-29.79h429.26c16.45 0 29.79 13.34 29.79 29.79s-13.34 29.79-29.79 29.79H297.37zM391.15 303.82c0 16.51-11.94 22.68-26.61 22.68h-27.13v-45.18h26.41c16.01 0 27.33 6.16 27.33 22.5zM556.83 275.95c0 26.14-12.7 50.14-44.04 50.14h-26.15v-104.13h25.95c30.68 0 44.24 22.82 44.24 53.99zM867.68 431.92V626.05h-42v-194.14H198.32v332.1c0 4.96 3.59 8.99 8 8.99h495.34V815H206.32c-27.57 0-50-22.88-50-50.99v-332.09h-61v-320.17h61V4c0-28.12 22.43-50.99 50-50.99h611.35c27.57 0 50 22.87 50 50.99V111.74h61V431.92h-60.99z m-244.8-77.87h111.71v-28.36h-77.92v-39.21h72.99v-28.36h-72.99v-64.1h-33.79V354.05z m-170.85 0h63.46c46.61 0 77.08-30.7 77.08-78.01 0-46.68-29.56-82.03-78.54-82.03h-62V354.05z m-149.25 0h66.21c34 0 57.09-19.14 57.09-49.56 0-34.77-26.33-50.72-57.9-50.72h-30.77V194h-34.63V354.05z m522.9-350.06c0-4.96-3.59-8.99-8-8.99H206.32c-4.41 0-8 4.03-8 8.99V111.74h627.36v-107.75z"  horiz-adv-x="1024" />
      
      <glyph glyph-name="shanchu" unicode="&#59211;" d="M607.897867 127.956996c-17.717453 0-31.994625 14.277171-31.994625 31.994625L575.903242 512.064505c0 17.717453 14.277171 31.994625 31.994625 31.994625s31.994625-14.277171 31.994625-31.994625l0-351.94087C639.892491 142.406182 625.61532 127.956996 607.897867 127.956996zM415.930119 127.956996c-17.717453 0-31.994625 14.277171-31.994625 31.994625L383.935495 512.064505c0 17.717453 14.277171 31.994625 31.994625 31.994625 17.717453 0 31.994625-14.277171 31.994625-31.994625l0-351.94087C447.924744 142.406182 433.647573 127.956996 415.930119 127.956996zM928.016126 672.037628l-159.973123 0L768.043004 736.026877c0 52.980346-42.659499 95.983874-95.295817 95.983874L351.94087 832.010751c-52.980346 0-95.983874-43.003528-95.983874-95.983874l0-63.989249-159.973123 0c-17.717453 0-31.994625-14.277171-31.994625-31.994625s14.277171-31.994625 31.994625-31.994625l832.032253 0c17.717453 0 31.994625 14.277171 31.994625 31.994625S945.73358 672.037628 928.016126 672.037628zM319.946246 736.026877c0 17.545439 14.449185 31.994625 31.994625 31.994625l320.806316 0c17.545439 0 31.306568-14.105157 31.306568-31.994625l0-63.989249L319.946246 672.037628 319.946246 736.026877 319.946246 736.026877zM736.048379-64.010751 288.123635-64.010751c-52.980346 0-95.983874 43.003528-95.983874 95.983874L192.139761 512.408534c0 17.717453 14.277171 31.994625 31.994625 31.994625s31.994625-14.277171 31.994625-31.994625l0-480.435411c0-17.717453 14.449185-31.994625 31.994625-31.994625l448.096758 0c17.717453 0 31.994625 14.277171 31.994625 31.994625L768.215018 511.204435c0 17.717453 14.277171 31.994625 31.994625 31.994625s31.994625-14.277171 31.994625-31.994625l0-479.231312C832.032253-20.835209 789.028725-64.010751 736.048379-64.010751z"  horiz-adv-x="1024" />
      
      <glyph glyph-name="daochu" unicode="&#58908;" d="M646.79400658 754.78857422h202.24291993c9.31915307 0 17.25897193-3.29754663 23.82934547-9.9865725 6.6049807-6.49127173 9.90252662-14.42120385 9.90252661-23.79473829V518.81872559c0-9.37353516-3.29754663-17.30346656-9.89758253-23.89855981-6.57531762-6.59014916-14.51513648-9.88769508-23.83428955-9.88769508-9.31420898 0-17.25402856 3.29754663-23.82934618 9.88769508-6.60992408 6.59509253-9.89263916 14.52502465-9.89263916 23.8985598V639.63647461L535.62170386 360.00256347000004c-6.47644019-6.49127173-14.37670922-9.78881836-23.70080566-9.78881836-9.66027856 0-17.6841433 3.1986692-24.10125733 9.58117677-6.41711402 6.49127173-9.60095239 14.52502465-9.60095166 24.10125732 0 9.37353516 3.22833228 17.20458984 9.7245481 23.794739l279.69818138 279.63391114h-120.87707519c-9.31420898 0-17.23425293 3.29754663-23.84912109 9.88769507-6.56048608 6.59509253-9.87780761 14.52502465-9.87780762 23.79473901 0 9.37353516 3.31732154 17.30346656 9.87780762 23.89361572 6.61486816 6.59014916 14.53491211 9.88769508 23.844177 9.88769508h0.03460717z m-404.50561546 0h235.95501708c9.3092649 0 17.22930884-3.29754663 23.84417701-9.9865725 6.57037354-6.49127173 9.87780761-14.42120385 9.87780761-23.79473829 0-9.26971435-3.31237817-17.20458984-9.87780761-23.79473902-6.61486816-6.59014916-14.53491211-9.88769508-23.84417701-9.88769507H242.28839112c-9.30432153 0-17.25402856-3.29260253-23.81451393-9.88769579-6.62475562-6.59014916-9.89758325-14.52008057-9.89758324-23.89361572v-539.29467726c0-9.26971435 3.27282691-17.19964576 9.89758324-23.78979492 6.56048608-6.59014916 14.51019311-9.88769508 23.81451393-9.88769579h539.32434105c9.3092649 0 17.22930884 3.29754663 23.844177 9.88769579 6.57037354 6.59014916 9.87780761 14.52502465 9.87780763 23.79473829V350.21374512c0 9.26971435 3.31237817 17.19964576 9.87780761 23.78979492 6.60992408 6.59509253 14.53985619 9.88769508 23.85406519 9.88769507 9.3092649 0 17.22930884-3.29260253 23.844177-9.88769507 6.56048608-6.59014916 9.87780761-14.52008057 9.87780762-23.78979492v-235.96984864c0-27.90801978-9.87780761-51.70275879-29.62353539-71.47814965-19.75561523-19.77539086-43.59979224-29.55926513-71.48803711-29.55926513H242.33288574c-27.92285133 0-51.72747779 9.78881836-71.4929812 29.56420922-19.75561523 19.77539086-29.63342286 43.56518578-29.63342284 71.47814965V653.5385744499999c0 27.91296386 9.87780761 51.70275879 29.63342284 71.47814894 19.76550269 19.77539086 43.57012915 29.66308594 71.4929812 29.66308594L242.28839112 754.78857422z"  horiz-adv-x="1024" />
      
      <glyph glyph-name="xinjianpushu" unicode="&#58887;" d="M632 795.9v-173c0-16.5 13.4-29.9 30-29.9h173.8c13.4 0 20.1 16.1 10.6 25.5l-188.8 188c-9.4 9.4-25.6 2.8-25.6-10.6zM842 518.4H647c-49.7 0-90 40.1-90 89.6V802.1c0 16.5-13.4 29.9-30 29.9H212c-33.1 0-60-26.7-60-59.7v-776.5c0-33 26.9-59.7 60-59.7h600c33.1 0 60 26.7 60 59.7V488.5c0 16.5-13.4 29.9-30 29.9zM624.5 257.1h-75v-74.7c0-20.5-16.9-37.3-37.5-37.3s-37.5 16.8-37.5 37.3v74.7h-75c-20.6 0-37.5 16.8-37.5 37.3 0 20.5 16.9 37.3 37.5 37.3h75v74.7c0 20.5 16.9 37.3 37.5 37.3s37.5-16.8 37.5-37.3v-74.7h75c20.6 0 37.5-16.8 37.5-37.3 0-20.5-16.9-37.3-37.5-37.3z"  horiz-adv-x="1024" />
      
      <glyph glyph-name="date" unicode="&#59031;" d="M512 704c179.2 0 320-140.8 320-320s-140.8-320-320-320-320 140.8-320 320S332.8 704 512 704M512 768C300.8 768 128 595.2 128 384s172.8-384 384-384 384 172.8 384 384S723.2 768 512 768L512 768zM640 224c-6.4 0-19.2 0-25.6 6.4l-128 128C486.4 364.8 480 377.6 480 384L480 608C480 627.2 492.8 640 512 640s32-12.8 32-32l0-211.2 121.6-121.6c12.8-12.8 12.8-32 0-44.8C659.2 224 646.4 224 640 224z"  horiz-adv-x="1024" />
      
      <glyph glyph-name="logout" unicode="&#59733;" d="M772 29c-75.8-55.6-165.7-85-260-85-59.4 0-117 11.6-171.2 34.5-52.4 22.1-99.5 53.9-139.9 94.3-40.4 40.4-72.1 87.5-94.3 139.9C83.6 267 72 324.6 72 384s11.6 117 34.5 171.2c22.1 52.4 53.8 99.5 94.3 139.9 40.5 40.4 87.5 72.1 139.9 94.3C395 812.4 452.6 824 512 824c94.3 0 184.2-29.4 260-85 16-11.8 38.5-8.3 50.3 7.7s8.3 38.5-7.7 50.3C726.4 861.8 621.7 896 512 896c-69.1 0-136.2-13.5-199.3-40.2C251.7 830 197 793 150 746S66 644.3 40.2 583.3C13.5 520.2 0 453.1 0 384s13.5-136.2 40.2-199.3C66 123.7 103 69 150 22s101.7-84 162.7-109.8c63.1-26.7 130.2-40.2 199.3-40.2 109.7 0 214.4 34.2 302.6 99 16 11.7 19.5 34.3 7.7 50.3-11.7 16-34.3 19.5-50.3 7.7zM1013.6 409.5L877.8 545.3c-14.1 14.1-36.9 14.1-50.9 0-14.1-14.1-14.1-36.9 0-50.9l74.3-74.3-481.1-0.1c-19.9 0-36-16.1-36-36s16.2-36.1 36-36.1l481.1-0.1-74.3-74.3c-14.1-14.1-14.1-36.8-0.1-50.8 7-7 16.3-10.6 25.5-10.6s18.5 3.5 25.5 10.5l135.8 135.8c14 14 14 37.1 0 51.1z"  horiz-adv-x="1024" />
      
      <glyph glyph-name="key" unicode="&#59361;" d="M608 784c-167.9 0-304-136.1-304-304 0-70.3 23.9-135 63.9-186.5l-41.1-41.1-62.3 62.3c-3.1 3.1-8.2 3.1-11.4 0l-39.8-39.8c-3.1-3.1-3.1-8.2 0-11.4l62.3-62.3-44.9-44.9-62.3 62.3c-3.1 3.1-8.2 3.1-11.4 0l-39.8-39.8c-3.1-3.1-3.1-8.2 0-11.4l62.3-62.3-65.3-65.3c-3.1-3.1-3.1-8.2 0-11.3l42.3-42.3c3.1-3.1 8.2-3.1 11.3 0l253.6 253.6C473 199.9 537.7 176 608 176c167.9 0 304 136.1 304 304S775.9 784 608 784z m161.2-465.2C726.2 275.7 668.9 252 608 252c-60.9 0-118.2 23.7-161.2 66.8-43.1 43-66.8 100.3-66.8 161.2 0 60.9 23.7 118.2 66.8 161.2 43 43.1 100.3 66.8 161.2 66.8 60.9 0 118.2-23.7 161.2-66.8 43.1-43 66.8-100.3 66.8-161.2 0-60.9-23.7-118.2-66.8-161.2z"  horiz-adv-x="1024" />
      
      <glyph glyph-name="yanjing" unicode="&#59009;" d="M512.338944 157.713408c165.547008 0 390.09792 169.18016 405.70368 215.688192-6.089728 50.951168-217.427968 235.211776-405.70368 235.211776-179.0976 0-405.809152-146.766848-405.830656-236.33408C111.219712 328.153088 328.777728 157.713408 512.338944 157.713408M512.338944 112.601088C324.273152 112.601088 61.44 289.601536 61.44 371.8912c0 130.400256 264.404992 281.83552 450.898944 281.83552 204.079104 0 450.905088-198.331392 450.905088-281.83552C963.244032 302.406656 693.465088 112.601088 512.338944 112.601088L512.338944 112.601088 512.338944 112.601088 512.338944 112.601088zM512.338944 112.601088M512.338944 270.4384c62.134272 0 112.729088 50.593792 112.729088 112.729088 0 62.1312-50.594816 112.72192-112.729088 112.72192-62.133248 0-112.723968-50.59072-112.723968-112.72192C399.614976 321.032192 450.205696 270.4384 512.338944 270.4384M512.338944 225.32608c-87.181312 0-157.837312 70.660096-157.837312 157.841408 0 87.17824 70.656 157.835264 157.837312 157.835264 87.186432 0 157.840384-70.656 157.840384-157.835264C670.179328 295.986176 599.525376 225.32608 512.338944 225.32608L512.338944 225.32608 512.338944 225.32608 512.338944 225.32608zM512.338944 225.32608"  horiz-adv-x="1024" />
      
      <glyph glyph-name="baocun" unicode="&#58939;" d="M819.823 812.306H206.991c-67.703 0-122.588-54.885-122.588-122.588v-612.833c0-67.703 54.885-122.588 122.588-122.588h612.833c67.703 0 122.588 54.885 122.588 122.588V689.718c-0.001 67.703-54.885 122.588-122.589 122.588z m-124.435-63.313v-241.142H331.772V748.993h363.616z m185.787-672.274c0.027-33.765-27.323-61.158-61.088-61.185H207.133c-16.389 0-31.864 6.297-43.454 17.887s-18.039 26.91-18.039 43.298v612.94c0.061 33.923 27.57 61.395 61.493 61.41h61.327v-245.294c-0.05-33.771 27.286-61.187 61.057-61.237h367.888c33.853 0 61.299 27.387 61.299 61.237V751.069h61.206c33.872-0.036 61.301-27.524 61.265-61.396V76.719zM574.817 566.064c17.483 0 31.656 14.173 31.656 31.656v61.292c0 17.483-14.173 31.656-31.656 31.656s-31.656-14.173-31.656-31.656v-61.292c0-17.483 14.173-31.656 31.656-31.656z"  horiz-adv-x="1024" />
      
      <glyph glyph-name="yonghu" unicode="&#58943;" d="M648.6 357.1c63.2 46.6 104.2 121.6 104.2 206C752.8 704.2 638 819 496.9 819S241 704.2 241 563.1c0-84.4 41.1-159.4 104.2-206C200.4 297.3 98.3 154.6 98.3-11.5c0-22.1 17.9-40 40-40s40 17.9 40 40c0 175.8 143 318.7 318.7 318.7s318.7-143 318.7-318.7c0-22.1 17.9-40 40-40s40 17.9 40 40c-0.1 166.1-102.3 308.8-247.1 368.6z m-327.7 206c0 97.1 79 176 176 176s176-79 176-176-79-176-176-176-176 79-176 176z"  horiz-adv-x="1024" />
      
      <glyph glyph-name="guanligongju" unicode="&#58919;" d="M406.409701 409.004743h-332.769427a63.994121 63.994121 0 0 0-63.99412 67.193826V809.607937a63.994121 63.994121 0 0 0 63.99412 63.994121h332.769427a63.994121 63.994121 0 0 0 67.193827-63.994121v-333.409368a63.994121 63.994121 0 0 0-67.193827-67.193826z m0 400.603194H76.83998l3.839648-330.209662h325.730073z m0-330.209662zM767.976482 392.366271a63.994121 63.994121 0 0 0-46.715708 19.198237L536.317766 596.507516a63.994121 63.994121 0 0 0 0 92.791475L720.620833 874.241999a63.994121 63.994121 0 0 0 92.791475 0l184.303067-184.943008a63.994121 63.994121 0 0 0 0-92.791475l-184.303067-184.943008a63.994121 63.994121 0 0 0-45.435826-19.198237zM589.432886 640.023518L767.976482 464.679628 945.240196 640.023518 767.976482 821.126879zM406.409701-127.905929h-332.769427a63.994121 63.994121 0 0 0-63.99412 67.193827V275.257031a63.994121 63.994121 0 0 0 63.99412 63.99412h332.769427a63.994121 63.994121 0 0 0 67.193827-63.99412v-333.409368A63.994121 63.994121 0 0 0 406.409701-127.905929z m0 400.603195l-329.569721-3.199706 3.839648-330.209662 325.730073 3.199706z m0-330.209662zM933.721254-127.905929H600.311886a63.994121 63.994121 0 0 0-63.99412 67.193827V275.257031a63.994121 63.994121 0 0 0 63.99412 63.99412h333.409368a63.994121 63.994121 0 0 0 63.994121-63.99412v-333.409368a63.994121 63.994121 0 0 0-63.994121-69.753592z m-3.839647 403.16296l-329.569721-3.199706 3.839648-330.209662 325.730073 3.199706z m3.839647-330.209662z"  horiz-adv-x="1024" />
      
      <glyph glyph-name="sousuo" unicode="&#58961;" d="M966.4-28.8l-230.4 227.2c60.8 67.2 96 156.8 96 256 0 217.6-176 390.4-390.4 390.4-217.6 0-390.4-176-390.4-390.4 0-217.6 176-390.4 390.4-390.4 99.2 0 188.8 35.2 256 96l230.4-227.2c9.6-9.6 28.8-9.6 38.4 0C979.2-54.4 979.2-38.4 966.4-28.8zM102.4 454.4c0 185.6 150.4 339.2 339.2 339.2s339.2-150.4 339.2-339.2c0-89.6-35.2-172.8-92.8-233.6-3.2 0-3.2-3.2-6.4-3.2-3.2-3.2-3.2-3.2-3.2-6.4-60.8-57.6-144-92.8-233.6-92.8C256 115.2 102.4 268.8 102.4 454.4z"  horiz-adv-x="1024" />
      
      <glyph glyph-name="top" unicode="&#58881;" d="M536.797267 614.246965c-4.232394 6.344498-10.273994 11.05887-17.347087 13.536294-3.714602 1.481747-7.735172 2.266623-12.144598 2.266623l-0.183172 0-1.147126 0.12075c-0.575098 0-1.026376-0.090051-1.601474-0.150426-4.229325 0-8.18645-0.7552-11.69332-2.145873-7.312546-2.508123-13.385868-7.312546-17.223267-13.355169l-254.17698-254.752078c-5.952572-5.921873-9.18622-13.990642-9.18622-22.691815 0-9.66922 4.110621-19.24839 11.17962-26.318412 7.010671-6.980995 16.075117-10.850116 25.501814-10.850116 8.702196 0 16.861016 3.325745 23.024389 9.457396 0.242524 0.302899 0.544399 0.544399 0.847298 0.847298 0.63445 0.544399 1.388627 1.24127 1.721201 1.783623l195.588607 195.256032 0.393973-469.799876c-0.151449-1.026376-0.151449-1.962701-0.091074-2.870374l0.060375-1.088798c0-17.675568 15.47239-31.513738 35.233456-31.513738 19.942191 0 36.07666 14.140045 36.07666 31.513738l0.364297 473.759047 195.34506-194.98281c0.632403-0.787946 1.328251-1.452071 2.084475-2.087545l0.846274-0.816598c6.104021-6.131651 14.262842-9.457396 22.961968-9.457396 9.428743 0 18.49319 3.868097 25.504884 10.850116 14.07967 14.048971 14.987343 36.016285 1.991354 49.010227L536.797267 614.246965zM887.66338 766.02067L124.346541 766.02067c-17.706267 0-32.073486-14.382569-32.073486-32.028461 0-17.675568 14.367219-32.05916 32.073486-32.05916l763.317862 0c17.677615 0 32.060183 14.383592 32.060183 32.05916C919.723563 751.638101 905.342018 766.02067 887.66338 766.02067"  horiz-adv-x="1024" />
      
      <glyph glyph-name="duigou" unicode="&#59083;" d="M948.84 678.2a32 32 0 0 1-45.25 0L383.07 157.68 120.41 420.34a32 32 0 1 1-45.25-45.26L360.44 89.8a32 32 0 0 1 45.26 0l543.14 543.15a32 32 0 0 1 0 45.25z"  horiz-adv-x="1024" />
      
      <glyph glyph-name="notice" unicode="&#59186;" d="M1157.01 432.159H924.792c-26.346 0-47.685-21.453-47.685-47.874v-14.943c0-26.459 21.34-47.874 47.685-47.874h232.218c26.346 0 47.685 21.415 47.685 47.874v14.943c0 26.42-21.34 47.874-47.685 47.874zM618.204 843.038C545.98 785.604 394.83 705.1 286.061 627.718l-0.151-0.075c-1.243-0.753-2.484-5.044-3.726-5.758-12.872-7.226-18.63-27.212-88.484-27.212H57.417c-34.964 0-56.68-16.37-56.68-53.293v-328.19c0-36.921 19.908-55.138 56.68-55.138h136.846c69.515-0.113 75.16-19.947 87.957-27.174 1.243-0.714 2.446-5.006 3.726-5.758l0.151-0.075c105.345-77.38 257.51-164.172 332.143-219.234 22.469-16.597 97.215-45.767 97.215 56.794V790.611c0 102.597-75.348 69.815-97.253 52.428l0.002-0.001z m214.454-226.272c12.345-21.753 36.771-27.211 54.611-12.194l190.893 160.897c17.839 15.016 22.281 44.825 9.973 66.616l-7 12.307c-12.308 21.753-36.771 27.212-54.574 12.194L835.668 695.727c-17.84-15.054-22.319-44.862-9.974-66.616l6.963-12.345h0.001z m54.573-468.538c-17.839 15.016-42.266 9.56-54.61-12.157l-6.964-12.307c-12.345-21.753-7.828-51.562 9.974-66.617l190.893-160.858c17.839-15.017 42.265-9.56 54.573 12.157l7.001 12.307c12.307 21.753 7.829 51.562-9.973 66.616L887.232 148.228z"  horiz-adv-x="1205" />
      
      <glyph glyph-name="play-fill" unicode="&#59183;" d="M512 746.666667c200.298667 0 362.666667-162.368 362.666667-362.666667s-162.368-362.666667-362.666667-362.666667S149.333333 183.701333 149.333333 384 311.701333 746.666667 512 746.666667z m-50.56-234.666667c-19.2 0-34.773333-15.573333-34.773333-34.773333v-182.997334a34.773333 34.773333 0 0 1 53.546666-29.248l143.808 92.394667a34.773333 34.773333 0 0 1-0.256 58.666667l-143.808 90.602666a34.773333 34.773333 0 0 1-18.538666 5.354667z"  horiz-adv-x="1024" />
      
      <glyph glyph-name="edit" unicode="&#58991;" d="M500.864 333.824a29.525333 29.525333 0 0 0-21.333333 9.130667 31.957333 31.957333 0 0 0 0 44.074666l318.122666 329.173334a29.44 29.44 0 0 0 42.581334 0 31.957333 31.957333 0 0 0 0-44.074667l-318.08-329.173333a29.525333 29.525333 0 0 0-21.333334-9.130667zM755.029333 42.666667H272.64c-26.453333 0-53.461333 12.032-73.685333 33.024-20.650667 21.333333-32.554667 48.64-32.554667 75.349333V627.541333c0 27.861333 12.672 53.76 35.114667 71.893334a114.176 114.176 0 0 0 71.125333 24.874666h261.802667c15.488 0 28.032-13.013333 28.032-28.928a28.544 28.544 0 0 0-28.032-28.970666H272.64c-26.282667 0-50.005333-17.237333-50.005333-38.869334V151.04c0-24.448 26.026667-50.474667 50.005333-50.474667h482.389333c20.650667 0 36.010667 23.04 36.010667 50.474667v225.237333c0 15.872 12.586667 28.842667 28.117333 28.842667 15.530667 0 28.117333-12.970667 28.117334-28.842667v-225.28c0-27.008-8.149333-52.608-23.296-72.661333-17.408-23.082667-41.728-35.669333-68.949334-35.669333z"  horiz-adv-x="1024" />
      
      <glyph glyph-name="pa_user" unicode="&#59002;" d="M971.901946 395.07729c-0.364297-241.510496-207.845769-446.779579-450.424596-445.599708-241.099127 1.143033-438.753789 206.721155-441.910688 453.107705C76.955184 605.733057 227.944014 849.309608 524.686439 850.288912c299.581076 0.997724 449.662233-243.194858 447.215507-455.211622zM738.880799 209.486384c60.613496-79.766718 94.128821-31.597649 123.980709 25.681916 80.347956 154.070005 29.925566 350.415858-119.880321 471.750297-106.174158 85.98535-328.529385 85.932138-433.994392-0.127913-154.823158-126.33943-202.14186-321.182047-116.39187-479.425094 29.626761-54.662971 57.322543-96.052636 117.508297-23.302729 29.742395 35.945677 76.871785 57.507762 116.637464 85.948511-123.113969 125.360126-133.841288 220.178655-38.024012 311.679626 76.790944 73.343425 206.631104 71.420633 274.751575-4.099365 80.420611-89.089038 60.975746-208.91717-61.191665-314.634934 54.91675-22.128997 105.754602-32.847106 136.604215-73.470315z"  horiz-adv-x="1024" />
      
      <glyph glyph-name="location" unicode="&#59280;" d="M854.6 606.9c-18.8 43.4-45.7 82.3-79.9 115.7-34.2 33.4-73.9 59.5-118.2 77.8C610.7 819.4 562.1 829 512 829c-50.1 0-98.7-9.6-144.5-28.5-44.3-18.3-84-44.5-118.2-77.8-34.2-33.4-61.1-72.4-79.9-115.7-19.5-45-29.4-92.8-29.4-142 0-70.6 16.9-140.9 50.1-208.7 26.7-54.5 64-107.6 111-158.1 80.3-86.2 164.5-138.9 188.4-153 6.9-4.1 14.7-6.1 22.4-6.1 7.8 0 15.5 2 22.4 6.1 23.9 14.1 108.1 66.8 188.4 153 47 50.4 84.3 103.6 111 158.1C867.1 324 884 394.2 884 464.9c0 49.2-9.9 97-29.4 142zM512 15.8c-65.9 41.9-300 207.8-300 449.1 0 77.9 31.1 151.1 87.6 206.3C356.3 726.5 431.7 757 512 757s155.7-30.5 212.4-85.9C780.9 616 812 542.8 812 464.9c0-241.3-234.1-407.2-300-449.1zM512 633c-97.2 0-176-78.8-176-176s78.8-176 176-176 176 78.8 176 176-78.8 176-176 176z m79.2-255.2C570 356.7 541.9 345 512 345c-29.9 0-58 11.7-79.2 32.8C411.7 399 400 427.1 400 457c0 29.9 11.7 58 32.8 79.2C454 557.4 482.1 569 512 569c29.9 0 58-11.6 79.2-32.8C612.4 515 624 486.9 624 457c0-29.9-11.6-58-32.8-79.2z"  horiz-adv-x="1024" />
      
      <glyph glyph-name="delete" unicode="&#58880;" d="M912.526651 28.258856000000037L555.540144 385.287319l356.986507 357.000833c11.171434 11.18576 11.171434 29.257348 0 40.443108-11.20111 11.18576-29.272697 11.18576-40.444131 0L515.096013 425.732473 158.096203 782.732284c-11.187807 11.159154-29.258371 11.159154-40.444131 0-11.186783-11.186783-11.186783-29.286 0-40.47176L474.623229 385.287319 117.623419 28.258856000000037c-11.159154-11.172457-11.159154-29.216415 0-40.443108 11.18576-11.17348 29.284977-11.17348 40.47176 0l357.000833 357.027439 356.985484-357.027439c11.171434-11.17348 29.243021-11.17348 40.444131 0C923.698085-0.9575589999999465 923.725714 17.08639900000003 912.526651 28.258856000000037z"  horiz-adv-x="1024" />
      
      <glyph glyph-name="weixinzhifu" unicode="&#58910;" d="M537.622015 485.691831M316.914611 575.889221c-19.899085 0-39.991474-13.179462-39.991474-33.147073 0-19.835673 20.03-33.141959 39.991474-33.141959 19.960451 0 33.141959 13.374812 33.141959 33.210485C350.055547 562.773171 336.811651 575.889221 316.914611 575.889221L316.914611 575.889221zM502.466215 509.664624c20.03 0 33.210485 13.3114 33.210485 33.141959 0 19.967611-13.180485 33.147073-33.210485 33.147073-19.835673 0-39.732712-13.11605-39.732712-33.147073C462.733503 522.976024 482.693954 509.664624 502.466215 509.664624L502.466215 509.664624zM588.659445 383.487079c-13.180485 0-26.491884-13.180485-26.491884-26.428472 0-13.369698 13.3114-26.484725 26.491884-26.484725 20.087275 0 33.208439 13.11605 33.208439 26.484725C621.867884 370.306594 608.810133 383.487079 588.659445 383.487079L588.659445 383.487079zM734.604138 383.487079c-13.11605 0-26.427449-13.242874-26.427449-26.48677 0-13.374812 13.3114-26.490861 26.427449-26.490861 19.962497 0 33.205371 13.11605 33.205371 26.490861C767.746096 370.306594 754.503223 383.487079 734.604138 383.487079L734.604138 383.487079zM827.32471 894.977226 197.701132 894.977226c-108.570496 0-196.678359-88.113999-196.678359-196.678359l0-629.618463c0-108.57561 88.044451-196.680404 196.678359-196.680404L827.32471-128c96.745187 0 177.243613 69.948516 193.678563 161.95826l3.06423 160.683884L1024.067503 698.298868C1024.067503 806.869364 935.958618 894.977226 827.32471 894.977226L827.32471 894.977226zM403.09966 237.603753c-33.141959 0-59.695209 6.656211-92.842282 13.242874l-92.710344-46.453358 26.554273 79.726232c-66.41381 46.452336-106.153682 106.217094-106.153682 179.033467 0 126.173454 119.396556 225.476598 265.215447 225.476598 130.4016 0 244.548259-79.404059 267.580099-186.194928-8.571866 0.963453-17.081343 1.538252-25.589798 1.538252-125.989355 0-225.35591-93.995971-225.419322-209.801568 0-19.393835 3.006955-37.947972 8.19344-55.667527-8.256852-0.516501-16.507567-0.894927-24.826809-0.894927L403.100682 237.603753zM794.10502 144.634647l20.03-66.2921-72.74887 39.934199c-26.490861-6.656211-53.170936-13.247988-79.530882-13.247988-126.177545 0-225.480689 86.122659-225.480689 192.334639 0 106.021744 99.303144 192.404187 225.480689 192.404187 119.138817 0 225.287384-86.382443 225.287384-192.404187C887.078217 237.603753 847.408917 184.621007 794.10502 144.634647L794.10502 144.634647zM794.10502 144.634647"  horiz-adv-x="1025" />
      
      <glyph glyph-name="zhifubao" unicode="&#58921;" d="M1023.648242 194.722129 1023.648242 698.503779c0 108.597339-88.13141 196.728749-196.792705 196.728749L197.080507 895.232528C88.483168 895.232528 0.351758 807.101118 0.351758 698.503779l0-629.77503c0-108.597339 88.067454-196.728749 196.728749-196.728749l629.77503 0c96.765474 0 177.286116 69.967897 193.722816 162.000625-52.188121 22.576479-278.336644 120.237337-396.143651 176.454687-89.666354-108.597339-183.553807-173.768534-325.088502-173.768534s-235.997752 87.172069-224.677534 193.850728C82.151521 300.569359 130.1825 415.050653 338.80707 395.416151 448.747486 385.119231 499.080882 364.589345 588.747236 334.977703c23.216039 42.53076 42.466804 89.346574 57.112735 139.168322L248.245331 474.146025 248.245331 513.542939l196.728749 0L444.97408 584.278309 205.011055 584.278309 205.011055 627.640497l239.963025 0L444.97408 729.714321c0 0 2.174505 15.989008 19.826369 15.989008L563.164824 745.703329l0-118.062832 255.824121 0 0-43.362188-255.824121 0L563.164824 513.542939l208.688527 0c-19.186809-78.090313-48.286803-149.848979-84.74174-212.525888C747.741927 279.080132 1023.648242 194.722129 1023.648242 194.722129L1023.648242 194.722129 1023.648242 194.722129zM283.676972 104.224346c-149.529199 0-173.19293 94.399101-165.262382 133.859971 7.866592 39.269003 51.164824 90.497783 134.307663 90.497783 95.550309 0 181.123478-24.431204 283.836862-74.444819C464.416714 160.185872 375.773656 104.224346 283.676972 104.224346L283.676972 104.224346z"  horiz-adv-x="1024" />
      
      <glyph glyph-name="star" unicode="&#59359;" d="M908.1 542.9l-253.9 36.9L540.7 809.9c-3.1 6.3-8.2 11.4-14.5 14.5-15.8 7.8-35 1.3-42.9-14.5L369.8 579.8l-253.9-36.9c-7-1-13.4-4.3-18.3-9.3-12.3-12.7-12.1-32.9 0.6-45.3l183.7-179.1-43.4-252.9c-1.2-6.9-0.1-14.1 3.2-20.3 8.2-15.6 27.6-21.7 43.2-13.4L512 142l227.1-119.4c6.2-3.3 13.4-4.4 20.3-3.2 17.4 3 29.1 19.5 26.1 36.9l-43.4 252.9 183.7 179.1c5 4.9 8.3 11.3 9.3 18.3 2.7 17.5-9.5 33.7-27 36.3zM664.8 334.4l36.1-210.3L512 223.3 323.1 124l36.1 210.3-152.8 149L417.6 514 512 705.3 606.4 514l211.2-30.7-152.8-148.9z"  horiz-adv-x="1024" />
      
      <glyph glyph-name="star-fill" unicode="&#59498;" d="M908.1 542.9l-253.9 36.9L540.7 809.9c-3.1 6.3-8.2 11.4-14.5 14.5-15.8 7.8-35 1.3-42.9-14.5L369.8 579.8l-253.9-36.9c-7-1-13.4-4.3-18.3-9.3-12.3-12.7-12.1-32.9 0.6-45.3l183.7-179.1-43.4-252.9c-1.2-6.9-0.1-14.1 3.2-20.3 8.2-15.6 27.6-21.7 43.2-13.4L512 142l227.1-119.4c6.2-3.3 13.4-4.4 20.3-3.2 17.4 3 29.1 19.5 26.1 36.9l-43.4 252.9 183.7 179.1c5 4.9 8.3 11.3 9.3 18.3 2.7 17.5-9.5 33.7-27 36.3z"  horiz-adv-x="1024" />
      
      <glyph glyph-name="zuojiantou" unicode="&#58890;" d="M677.391515 22.083232c-7.86101 0-15.618586 2.999596-21.617778 8.895354L324.473535 362.278788c-11.998384 11.894949-11.998384 31.340606 0 43.235555L655.670303 736.711111c5.999192 5.999192 13.756768 8.895354 21.617778 8.895354 7.757576 0 15.618586-2.999596 21.617778-8.895354 11.894949-11.894949 11.894949-31.237172 0-43.235555L389.223434 383.896566 698.905859 74.214141c11.894949-11.998384 11.894949-31.340606 0-43.235555-5.895758-5.895758-13.756768-8.895354-21.514344-8.895354z m0 0"  horiz-adv-x="1024" />
      
      <glyph glyph-name="icongengduo" unicode="&#58884;" d="M120-40.256c-10.304 0-20.608 3.904-28.416 11.776-15.744 15.68-15.744 41.152 0 56.896L447.104 384 91.584 739.52c-15.744 15.68-15.744 41.152 0 56.896 15.68 15.744 41.152 15.744 56.896 0l384-384c15.744-15.68 15.744-41.152 0-56.896l-384-384C140.608-36.352 130.304-40.256 120-40.256zM520-40.256c-10.304 0-20.608 3.904-28.416 11.776-15.744 15.68-15.744 41.152 0 56.896L847.104 384 491.584 739.52c-15.744 15.68-15.744 41.152 0 56.896 15.68 15.744 41.152 15.744 56.896 0l384-384c15.744-15.68 15.744-41.152 0-56.896l-384-384C540.608-36.352 530.304-40.256 520-40.256z"  horiz-adv-x="1024" />
      
      <glyph glyph-name="jinrujiantou" unicode="&#59534;" d="M709.845 645.653c-3.654 3.973-5.894 9.297-5.894 15.143 0 6.119 2.454 11.665 6.43 15.708 3.71 3.747 8.86 6.070 14.552 6.070 6.002 0 11.401-2.582 15.147-6.696l272.441-292.71-272.427-292.651c-3.758-4.136-9.157-6.722-15.161-6.722-5.694 0-10.845 2.326-14.554 6.080-8.322 8.322-8.749 21.975-0.535 30.85l242.347 262.464-242.347 262.464z"  horiz-adv-x="1024" />
      
      <glyph glyph-name="jiantouyou" unicode="&#58925;" d="M312.888889-99.555556c-17.066667 0-28.444444 5.688889-39.822222 17.066667-22.755556 22.755556-17.066667 56.888889 5.688889 79.644445l364.088888 329.955555c11.377778 11.377778 17.066667 22.755556 17.066667 34.133333 0 11.377778-5.688889 22.755556-17.066667 34.133334L273.066667 708.266667c-22.755556 22.755556-28.444444 56.888889-5.688889 79.644444 22.755556 22.755556 56.888889 28.444444 79.644444 5.688889l364.088889-312.888889c34.133333-28.444444 56.888889-73.955556 56.888889-119.466667s-17.066667-85.333333-51.2-119.466666l-364.088889-329.955556c-11.377778-5.688889-28.444444-11.377778-39.822222-11.377778z"  horiz-adv-x="1024" />
      
    </font>
</defs>
</svg>
